#TITLE:Dragon Force;
#SUBTITLE:- Through The Fire And Flames;
#ARTIST:Drangon Force;
#TITLETRANSLIT:;
#SUBTITLETRANSLIT:;
#ARTISTTRANSLIT:;
#CREDIT:Danny Production;
#BANNER:dragonforce-bn.jpg;
#BACKGROUND:Dragonforce-bg.jpg;
#LYRICSPATH:;
#CDTITLE:;
#MUSIC:Dragon Force - Through The Fire And Flames.mp3;
#OFFSET:0.000;
#SAMPLESTART:100.000;
#SAMPLELENGTH:12.000;
#SELECTABLE:YES;
#BPMS:0.000=142.000;
#STOPS:;
#BGCHANGES:0.000=Dragonforce-bg.jpg=1.000=0=0=1,
99999=-nosongbg-=1.000=0=0=0 // don't automatically add -songbackground-
;
// cache tags:
#FIRSTBEAT:5.000;
#LASTBEAT:710.500;
#SONGFILENAME:Songs/nhac/Dragon Force  Through The Fire And Flames/Dragon Force - Through The Fire And Flames.sm;
#HASMUSIC:1;
#HASBANNER:1;
#MUSICLENGTH:301.986;
// end cache tags

//---------------dance-single - ----------------
#NOTES:
     dance-single:
     :
     Easy:
     5:
     0.351,0.529,0.215,0.166,0.000,628.000,65.000,50.000,0.000,0.000:
0000
0000
0000
0000
,
0000
2002
3003
0000
,
0000
0000
0000
0000
0000
2002
0000
0000
,
3003
0000
0000
0000
,
0000
2002
0000
0000
0000
0000
0000
0000
,
0000
0000
3003
0000
2002
3003
0000
0000
,
0000
0000
2002
3003
2002
3003
2002
3003
,
0000
0100
0001
1000
,
0100
0001
0100
1000
,
0001
0100
0001
1000
,
0010
1000
0001
0100
,
0001
1000
0100
0001
,
2002
0000
0000
3003
,
0000
0000
0000
0000
,
2002
3003
0000
0000
,
0000
0000
2002
3003
,
0000
0000
0000
0000
,
1000
0010
0001
1000
,
0010
0100
0001
1000
,
0001
0100
0001
1000
,
0100
0001
0010
1000
,
0001
0100
0001
1000
,
0010
0100
0001
1000
,
0010
0001
1000
0100
,
0010
0001
1000
0100
,
0001
0100
1000
0001
,
0100
0010
1000
0001
,
0100
0010
1000
0100
,
0001
0010
1000
0000
,
1001
0110
1001
0010
,
0100
0001
1000
0100
,
0001
0010
1000
0100
,
0001
0010
0100
0001
,
0100
1000
0010
0100
,
0202
0000
0000
0303
,
1010
0101
1010
0100
,
0001
1000
0100
0001
,
1000
0010
1000
0100
,
0001
0010
0001
0100
,
0001
1000
0010
0100
,
0001
1000
0100
0001
,
0010
1000
0001
0100
,
0001
1000
0010
0001
,
0100
1000
0001
0100
,
0001
1000
0010
0100
,
0001
0202
0000
0000
,
0303
0000
0000
1000
,
0001
0100
1000
0010
,
0001
0100
0001
1000
,
0010
0100
0001
1000
,
0100
0001
0010
1000
,
0001
0100
0001
0010
,
1000
0100
0001
0100
,
0001
1000
0100
0001
,
0010
0100
0001
0100
,
0010
1000
0001
0100
,
1001
0000
0000
1000
,
0100
0001
1000
0010
,
0100
0001
1000
0100
,
0001
0010
1000
0100
,
0001
0010
1000
0001
,
0100
0001
0010
1000
,
0100
0001
0010
0100
,
0001
1000
0001
1000
,
0100
0001
0010
1000
,
0100
0001
1000
0010
,
0001
0100
1000
0001
,
0010
0100
0101
1010
,
0000
1001
0110
1001
,
0011
1100
0001
0010
,
0100
1000
0001
0100
,
0001
1000
0100
0001
,
0010
1000
0100
0001
,
1000
0010
0100
0022
,
0000
0033
0022
0033
,
1000
0001
0100
0001
,
0100
0010
1000
0100
,
0001
1000
0100
0010
,
1000
0001
0100
0001
,
1000
0100
0001
0100
,
0010
0001
0100
1000
,
0001
0100
0010
0001
,
1000
0100
0010
0100
,
2002
0000
3003
0100
,
1000
0001
1000
0100
,
0220
0000
0000
0330
,
0001
0100
1000
0100
,
0001
1000
0100
0001
,
1000
0100
0010
1000
,
0001
0100
0001
1000
,
0100
0001
0010
1000
,
0001
0100
0010
1000
,
0001
1000
0100
0001
,
0010
0100
1000
0001
,
0100
0001
0010
1000
,
0100
0001
0010
1000
,
0100
0010
2002
0000
,
0000
3003
0000
0000
,
0010
1000
0100
1000
,
0100
0010
0100
1000
,
0100
0001
0010
1000
,
0001
0100
0001
1000
,
0100
0001
0010
1000
,
0001
0100
0001
0010
,
0001
1000
0100
0001
,
0100
1000
0010
0001
,
0100
0001
0010
1000
,
0110
0000
0000
1000
,
0100
0001
0010
1000
,
0100
0001
0010
1000
,
0100
0001
0010
0100
,
0010
0001
1000
0001
,
0100
0010
1000
0100
,
0001
0010
1000
0100
,
0001
0010
1000
0001
,
0100
0001
0010
1000
,
0100
0001
1000
0100
,
0001
0010
1000
0100
,
0001
0010
0001
0010
,
0100
2002
0000
3003
,
0010
0100
0001
0010
,
1000
0100
0001
0010
,
1000
0202
0303
1000
,
0010
0001
0100
1000
,
0010
0001
0100
0010
,
1000
0001
0100
0001
,
0010
1000
0100
0001
,
0010
1000
0100
0010
,
0100
0001
1000
0001
,
0010
0100
0001
0010
,
0100
0001
0010
1000
,
0100
0001
0010
1000
,
0100
0001
0010
1000
,
0010
0001
0100
0001
,
1000
0001
1000
0100
,
0001
0010
1000
0001
,
0220
0330
1000
0001
,
1000
0100
0001
0100
,
0001
0010
1000
0001
,
0100
0010
0001
1000
,
0100
0001
0100
0010
,
1000
0100
0001
0010
,
0100
0001
1000
0100
,
0001
0010
1000
0100
,
0001
0010
0100
0001
,
0100
1000
0001
0100
,
0001
0010
1000
0001
,
0100
0001
0010
1000
,
0001
0100
0001
0010
,
0100
0001
1000
0100
,
0001
0010
0001
2200
,
3300
0010
1000
0010
,
0100
1000
0022
0033
,
0010
0001
0100
1000
,
0001
0010
0100
0001
,
1000
0100
0010
0001
,
1000
0001
0100
0001
,
0010
0001
0100
0010
,
1100
0011
0110
1100
,
0011
0110
0001
1000
,
0100
0001
0010
0001
,
1000
0010
0100
0001
,
0010
0100
1000
0010
,
0001
0100
0010
1000
,
0100
0001
0010
0100
,
1000
0001
0010
0100
,
1000
0100
0001
0010
,
0100
0001
1000
0010
,
0001
0100
0010
1000
,
0101
0000
0000
0110
,
1001
0110
1001
0110
,
1100
0011
1100
0011
,
0110
1100
0011
0110
,
0011
0110
2002
0000
,
0000
0000
0000
0000
,
0000
3003
0001
0010
,
2002
3003
0110
1001
,
0110
2002
3003
0000
;

//---------------dance-single - Copied from----------------
#NOTES:
     dance-single:
     Copied from:
     Hard:
     10:
     0.646,0.676,0.132,0.136,0.144,1285.000,40.000,41.000,0.000,0.000:
0000
0000
0000
0000
,
0000
0000
0000
1000
0100
0010
0100
1000
,
0010
0100
1000
0010
0001
1000
0100
0010
,
0100
0010
0100
0010
0100
0001
1000
0001
,
1000
0100
0001
0010
0100
1000
0010
0001
,
1000
0010
0100
0010
1000
0100
0001
0010
,
0000
1001
0000
1001
1001
0000
1000
0001
,
1000
0001
1000
0010
0100
0001
0010
1000
,
0100
0001
1000
0010
0100
0001
1000
0010
,
0001
1000
0100
0001
0010
0100
1000
0010
,
0100
0001
1000
0010
0100
1000
0001
0010
,
1000
0100
0001
1000
0100
0010
0100
2002
,
0000
0000
3003
0000
,
0000
0000
0000
0000
,
1001
0000
0000
0000
,
0000
0000
0000
0000
0000
1001
0000
0000
0000
0000
0000
0000
,
0000
0000
0000
0000
0000
0000
0000
0000
0000
1000
0100
0010
,
0001
0010
0100
1000
0100
0010
0001
0010
0100
1000
0100
0010
,
0001
0000
0100
0010
1000
0100
0010
0001
,
0100
0010
1000
0100
0001
0010
0100
1000
,
0010
0100
0010
1000
0001
0100
1000
0010
,
0001
0100
1000
0010
0001
0100
1000
0010
,
0001
0100
1000
0010
0100
0001
1000
0010
,
0100
0001
1000
0010
0100
0001
1000
0010
,
0100
0001
1000
0100
0010
0100
1000
0001
,
0100
1000
0010
0100
0001
1000
0100
1000
,
0010
1000
0100
0001
0100
0010
1000
0100
,
0001
0010
0100
1000
0001
0100
0001
0010
,
0100
1000
0010
0100
0001
0100
0000
1001
,
0000
1001
1001
0000
0000
0100
0010
1000
,
0010
0100
0001
1000
0100
0010
0101
0000
,
0010
0100
0001
0100
0010
0100
1000
0010
,
0100
0001
1000
0010
0100
0001
1010
0100
,
0001
0010
1000
0100
0001
0010
2000
0000
,
0000
0000
0000
3000
0000
0000
0100
0010
,
0001
0000
0000
1000
0100
0010
0100
1000
,
0010
0100
0010
0001
0100
1000
0010
0001
,
0100
0001
1000
0100
0001
0010
0100
1000
,
0010
0100
0010
0101
1000
0001
0100
0010
,
1000
0001
0100
0010
1000
0001
0100
0010
,
0001
0100
1000
0001
0000
0010
0001
1000
,
0100
0010
0001
1000
0100
0010
0100
1000
,
0100
0001
1000
0100
0001
0010
0100
1000
,
0001
0100
0001
1000
0010
0100
1000
0001
,
0100
0010
1000
0001
0100
0010
1000
0001
,
0100
0010
2002
0000
0000
0000
0000
0000
,
0000
3003
0000
0000
0000
0001
0010
0100
,
1000
0010
0100
0001
1000
0010
0100
0001
,
0100
1000
0010
0001
0100
1000
0001
0100
,
0000
0010
1000
0000
0101
1000
0010
0100
,
1000
0001
0010
0100
1000
0001
0100
0010
,
1000
0001
0100
0010
0001
0100
0001
0010
,
0001
0010
0100
1000
0001
0100
0000
1000
,
0100
0010
1000
0100
0010
1000
0100
0001
,
0010
1000
0100
0001
0100
1000
0001
0100
,
0001
0010
1000
0100
0010
0100
1001
0000
,
0000
0000
0000
0000
0001
1000
0001
0100
,
0010
0001
0100
1000
0010
0100
2002
3003
,
0100
0010
0100
1000
0001
0010
1000
0202
,
0000
0303
0000
0001
0100
0010
1000
0100
,
0010
1000
0100
0001
0100
0010
0001
0100
,
1000
0000
0000
0010
0000
0000
0100
0000
0000
0000
0000
0000
1000
0000
0100
0000
0010
0000
0001
0000
0010
0000
0100
0000
,
1000
0000
0100
0000
0010
0000
0001
0000
0000
0010
0000
0000
1000
0000
0000
0100
0000
0000
1000
0000
0000
0001
0000
0000
,
0010
0100
0010
1000
0100
0010
1000
0100
,
1000
0100
1000
0010
0001
0100
0001
0010
,
1000
0100
0001
0100
1000
0001
0100
0010
,
1000
0001
0100
1000
0001
1000
0001
1000
,
0001
1000
0000
1010
0000
1010
1010
1010
,
0000
0000
0000
0000
,
0000
0000
0000
1001
0100
0010
0100
0010
,
0001
0100
1000
0001
0100
0000
0010
1000
,
0100
0001
0100
0010
1000
0001
0100
0001
,
1000
0100
0001
0010
0100
1000
0001
0100
,
0010
1000
0100
0001
0010
1000
0110
0000
,
0000
0000
0000
2002
0000
0000
0000
0000
,
0000
3003
1000
0100
0010
0001
1000
0100
,
0001
1000
0101
0010
1000
0100
0001
0100
,
1000
0010
0100
1000
0010
0100
0001
0100
,
1000
0010
0100
0001
1000
0100
0001
0010
,
1000
0100
0001
0010
1000
0100
0010
0001
,
1000
0010
0100
1000
0010
0001
0100
0010
,
0001
1000
0100
0001
0010
1000
0100
0001
,
1000
0100
0001
0010
0100
1000
0100
1000
,
1000
0100
0100
0010
0010
0001
1000
0100
,
0001
0100
1000
0001
0010
0100
1000
0100
,
2020
0000
0000
3030
,
1000
0100
0010
0001
0100
0010
1000
0100
,
0001
0100
1000
0010
0100
0001
1000
0100
,
0010
0001
1000
0100
1000
0010
0001
0100
,
0010
1000
0001
0100
0010
1000
0001
0100
,
0010
1000
0010
0100
0001
1000
0010
0100
,
1000
0010
0100
0001
1000
0100
0001
0100
,
0010
1000
0001
0100
0001
1000
0100
0001
,
0010
0100
1000
0001
0100
0010
0001
0100
,
0010
1000
0001
0100
0001
0100
0010
1000
,
0001
0100
0010
0001
1000
0100
1000
0010
,
0100
1000
0010
1000
0001
0100
0010
1000
,
0110
0220
0000
0000
0000
0330
0000
0100
,
0010
1000
0100
0001
0010
0100
1000
0100
,
0010
1000
0001
0100
0010
0100
0001
1000
,
0100
1000
0010
1000
0100
0001
0100
0010
,
1000
0100
0001
0010
0100
1000
0001
0100
,
0010
0001
0100
0010
1000
0100
0001
0010
,
0100
1000
0001
0100
0001
0010
0100
1000
,
0010
0100
0001
1000
0100
0001
0010
0100
,
1000
0100
0100
1000
0010
0001
0100
1000
,
0100
0001
0010
0100
0001
0010
0100
1000
,
0200
0000
0000
0000
0000
0300
1000
0010
,
0001
1000
0010
0100
1000
0001
0100
0001
,
0010
0100
1000
0001
0010
1000
0100
0001
,
0010
1000
0010
0100
0001
1000
0100
0001
,
1000
0001
0100
1000
0100
0010
0100
1000
,
0001
0100
1000
0001
0100
0001
1000
0100
,
1000
0001
0010
0100
0001
0010
1000
0100
,
0001
0010
0100
0001
1000
0010
2002
3003
,
0100
0010
1000
0100
0001
0010
1000
0010
,
0202
0000
0000
0303
1000
0010
0100
0001
,
1000
0010
0001
0100
0010
1000
0100
0001
,
0010
0100
1000
0001
0100
0001
0010
0100
,
1000
0001
0000
0000
0000
0000
0000
0100
,
1000
0100
0010
0001
0010
0100
1000
0100
0010
0001
0010
0100
,
1000
0001
0100
0010
1000
0100
0001
0010
,
0100
0000
0000
0001
0000
0000
0010
0000
0000
2002
0000
0000
0000
0000
0000
3003
0000
0000
0001
0000
0010
0000
0100
0000
,
1000
0100
0010
0001
0010
0100
1000
0100
0010
0001
0010
0100
,
1000
0000
0100
0000
0010
0000
0001
0000
0000
0100
0000
0000
0001
0000
0000
1000
0000
0000
0010
0000
0000
0100
0000
0000
,
0001
1000
0100
0001
0100
1000
0001
0010
,
1000
0100
0001
0010
1000
0100
0001
0100
,
0010
1000
0100
0001
0100
0010
1000
0001
,
0100
0000
0000
0010
0000
0000
1000
0000
0000
0100
0000
0000
0000
0000
1000
0000
0100
0000
0010
0000
0001
0000
0010
0000
,
0100
1000
0100
0010
0001
0010
0100
1000
0100
0010
0001
0000
,
1000
0100
0010
0100
0001
1000
0010
0202
,
0000
0000
0000
0000
0000
0000
0303
0000
0000
0000
0010
0000
0001
0000
0010
0000
0100
0000
1000
0000
0000
0001
0000
0000
,
1000
0100
0010
1000
0001
1000
0001
1000
,
0001
0100
0010
1000
0100
0001
0010
0001
,
0100
0010
1000
0100
0010
0001
1000
0010
,
0100
0001
1000
0100
0001
0100
1000
0010
,
0002
0100
1003
0010
0001
2000
0000
3000
,
0200
0000
0000
0000
0300
0010
1000
0010
,
0100
0001
1000
0100
0001
0010
1000
0100
,
0001
0100
0010
0001
1000
0100
0010
0001
,
0100
0001
1000
0010
0100
0001
1000
0010
,
0100
0001
1000
0100
0010
0001
0100
0010
,
1000
0100
0001
0100
1000
0010
1000
0001
,
0100
0001
0010
1000
0100
0001
0010
1000
,
0200
0302
2003
0000
3200
0000
0300
1000
,
0010
0000
0000
0001
0000
0000
0100
0000
0000
0001
0000
0000
1000
0000
0100
0000
0010
0000
0001
0000
0010
0000
0100
0000
,
1000
0100
0010
1000
0001
0100
0001
0010
,
1000
0100
0001
0010
0001
1000
0001
0100
,
0001
0010
1000
0100
0001
0010
1000
0100
,
0001
0010
0100
1000
0001
0100
0001
1000
,
0010
0100
0001
1000
0010
2002
0000
0000
,
3003
1000
0100
0001
0010
0001
1000
0100
,
1000
0000
0000
0010
0000
0000
0100
0000
0000
0001
0000
0000
1000
0000
0000
0000
1000
0000
0100
0000
0010
0000
0001
0000
,
0010
0100
1000
0100
0010
0001
0010
0100
1000
0100
0010
0001
,
1000
0000
0000
1000
0000
0000
1000
0000
0000
1000
0000
0000
1000
0000
0000
0000
0010
0000
0001
0000
0010
0000
0001
0000
,
0010
0000
0001
0000
0010
0000
0001
0000
0000
1000
0000
0000
0100
0000
0000
0001
0000
0000
0100
0000
0000
0001
0000
0000
,
0010
1000
0100
0001
0010
0100
0010
0001
,
1000
0100
0001
0010
1000
0100
0001
0010
,
0100
1000
0001
0100
1000
0010
0001
0100
,
1000
0001
0100
0001
0010
2002
0000
0000
,
0000
3003
0100
0001
0010
1000
0100
0001
,
0010
1000
0100
0001
0010
0100
1000
0100
,
0001
0010
1000
0001
0010
0100
0001
1000
,
0010
0100
0001
1000
0100
0001
0010
1000
,
0001
0010
1000
0100
0001
0010
1000
0100
,
0001
1000
0001
0100
0010
1000
0001
0100
,
0001
0010
1000
0100
0001
0100
0010
1000
,
0100
0001
0100
0010
0001
1000
0010
0001
,
1000
0100
0001
0010
0100
0010
0000
1001
,
0000
0000
0000
0000
0000
0000
1000
1000
,
0100
0100
1000
1000
0001
0001
1000
0001
,
0000
0100
0100
0001
1000
0010
0100
0001
,
0001
1000
0100
0100
0001
0010
0100
0100
,
0001
0000
0000
1000
0000
0000
0000
0000
0000
0000
1000
0000
0100
0000
0010
0000
0001
0000
0010
0000
0100
0000
1000
0000
,
0100
0010
0001
0010
0100
1000
0100
0010
0001
0010
0100
1000
,
0100
0000
0010
0000
0000
0000
0001
0000
0000
1000
0000
0000
0100
0000
0000
0001
0000
0000
0010
0000
0000
2002
0000
0000
,
0000
0000
0000
3003
0000
0000
0220
0000
0000
0000
0000
0000
0330
0000
0000
0001
0000
0000
1000
0000
0100
0000
0010
0000
,
0000
1001
1001
2002
0000
3003
0000
0000
;

//---------------dance-single - Copied from----------------
#NOTES:
     dance-single:
     Copied from:
     Medium:
     5:
     0.433,0.558,0.192,0.189,0.000,801.000,58.000,57.000,0.000,0.000:
0000
0000
0000
0000
,
0000
0000
1001
0000
0100
0010
0000
0001
,
0100
0010
1000
0000
0000
2002
0000
0000
,
3003
0000
0000
0000
,
0000
2002
0000
0000
0000
0000
0000
0000
,
0000
0000
3003
0000
0220
0330
0000
0000
,
0000
0000
2002
3003
0220
0330
2002
3003
,
0000
1000
0100
0000
0001
0100
1000
0000
,
0110
0000
0001
0010
0100
0000
1000
0010
,
0001
0010
0100
0000
0001
0000
1000
0001
,
0010
0000
1000
0000
0001
0010
0100
0000
,
0001
0000
1000
0000
0100
0010
0001
0000
,
2002
0000
0000
3003
,
0000
0000
0000
0000
,
2002
3003
0000
0000
,
0000
0000
2002
3003
,
0000
0000
0000
0000
,
1000
0100
0010
0001
0000
0100
1000
0001
,
0010
0000
0100
0010
0001
0000
1000
0100
,
0001
0000
0100
0010
0001
0100
1000
0000
,
0100
1000
0001
0000
0010
0100
1000
0000
,
0001
0010
0100
0000
0001
0000
1000
0001
,
0010
0100
1000
0000
0001
0000
1000
0001
,
0010
0000
0001
0100
1000
0000
0100
0000
,
0010
0000
0001
0010
1000
0000
0100
0000
,
0001
1000
0100
0000
1000
0010
0001
0000
,
0100
0010
1000
0001
,
0100
0000
0010
0001
1000
0000
0100
0000
,
0001
0000
0010
0000
1000
0100
0010
0001
,
1000
0110
1001
0010
,
0100
0001
1000
0100
,
0001
0010
1000
0100
,
0001
1000
0010
0000
0100
0000
0001
0000
,
0100
1010
0101
1010
,
0202
0000
0000
0303
,
1010
0101
1010
0100
,
0001
0000
1000
0000
0100
0000
0001
0100
,
1000
0000
0010
0000
1000
0010
0100
0000
,
0001
0000
0010
1000
0001
0000
0100
0000
,
0001
0000
1000
0000
0010
0000
0100
1000
,
0001
0000
1000
0000
0100
0000
0001
0100
,
0010
1000
0001
0100
,
0001
0100
1000
0000
0010
0000
0001
0000
,
0100
0000
1000
0010
0001
0000
0100
0000
,
0001
1000
0010
0100
,
0001
0202
0000
0000
,
0303
0000
0000
0000
0000
0000
1000
0100
,
0001
0010
1000
0100
0000
0000
0010
0000
,
0001
0000
0100
0000
0001
0000
1000
0010
,
0000
0001
0100
0000
0001
0000
1000
0000
,
0100
0000
0001
0100
0010
0000
1000
0000
,
0001
0000
0100
0000
0001
0100
0010
0000
,
1000
0000
0100
0000
0001
0010
0100
0000
,
0001
0000
1000
0000
0100
0000
0001
1000
,
0010
0100
0001
0100
,
0010
0000
1000
0010
0001
0000
0100
0000
,
1001
0000
0000
1000
,
0100
0000
0001
0100
1000
0000
0010
0000
,
0200
0301
1000
0100
,
0001
0100
0010
0000
1000
0000
0100
0000
,
0001
0100
0010
0000
1000
0000
0001
0000
,
0100
0000
0001
0100
0010
0001
1000
0010
,
0100
0000
0001
0100
0010
0000
0100
0000
,
0001
0000
1000
0010
0001
0000
1000
0000
,
0100
0000
0001
1000
0010
0000
1000
0010
,
0100
0000
0001
0010
1000
0000
0010
0000
,
0001
0000
0100
0000
1000
0010
0001
0000
,
0010
0100
0101
1010
,
0000
1001
0110
1001
,
0011
1100
0001
0010
,
0100
0000
1000
0000
0001
0000
0100
1000
,
0001
0000
1000
0000
0100
0000
0001
1000
,
0010
0000
1000
0000
0100
0000
0001
0100
,
1000
0010
0100
0022
,
0000
0033
0022
0033
,
1000
0100
0001
0010
0100
0000
0001
0000
,
0100
1000
0010
0000
1000
0000
0100
0000
,
0001
0100
1000
0000
0100
0000
0010
0100
,
1000
0000
0001
0000
0010
1000
0001
0000
,
1000
0000
0100
1000
0001
0000
0100
0000
,
0010
1000
0001
0000
0100
0000
1000
0100
,
0001
0000
0100
0000
0010
0100
0001
0000
,
1000
0010
0100
0000
0010
0000
0100
0000
,
2002
0000
3003
0100
,
1000
0001
1000
0100
,
0220
0000
0000
0330
,
0001
0100
1000
0100
,
0001
0010
1000
0000
0100
1000
0001
0000
,
1000
0000
0100
0000
0010
0100
1000
0000
,
0001
0100
0001
1000
,
0100
0010
0001
0000
0010
0000
1000
0000
,
0001
0000
0100
1000
0010
0000
1000
0100
,
0001
0000
1000
0000
0100
0000
0001
1000
,
0010
0000
0100
0000
1000
0010
0001
0000
,
0100
0000
0001
1000
0010
0000
1000
0000
,
0100
0010
0001
0000
0010
0000
1000
0001
,
0100
0010
2002
0000
,
0000
0000
3003
0000
0000
0000
0000
0010
,
0100
0000
1000
0000
0100
0001
1000
0000
,
0100
0000
0010
0000
0100
0000
1000
0001
,
0100
0000
0001
0100
0010
0000
1000
0100
,
0001
0000
0100
0000
0001
0010
1000
0000
,
0100
0000
0001
0100
0010
0000
1000
0000
,
0001
0000
0100
0000
0001
0100
0010
0000
,
0001
0000
1000
0010
0100
0000
0001
0000
,
0100
0000
1000
0000
0010
0100
0001
0000
,
0100
1000
0001
0000
0010
0000
1000
0000
,
0110
0000
0000
1000
,
0100
0001
0010
1000
,
0200
0300
0001
0000
0010
0000
1000
0000
,
0100
0000
0002
0003
0010
0000
0100
0000
,
0010
0000
0001
0100
1000
0000
0001
0000
,
0100
0010
1000
0100
,
0001
0100
0010
0000
1000
0000
0100
0000
,
0001
0100
0010
0000
1000
0000
0002
0003
,
0100
0001
0010
1000
,
0200
0300
0001
0100
1000
0000
0100
0000
,
0001
0100
0010
0000
1000
0000
0100
0000
,
0001
0100
0010
0100
0001
1000
0010
0001
,
0100
0000
2002
0000
0000
0000
3003
0100
,
0010
0000
0100
0000
0001
0100
0010
0000
,
1000
0010
0100
0000
0001
0100
0010
0000
,
1000
0202
0303
1000
,
0010
0100
0001
0000
0100
0010
1000
0000
,
0010
0000
0001
1000
0100
0000
0010
0100
,
1000
0000
0001
0000
0100
1000
0001
0000
,
0010
1000
0100
0001
,
0010
1000
0100
0010
,
0100
0000
0001
0100
1000
0100
0001
1000
,
0010
0000
0100
1000
0001
0000
0010
1000
,
0100
0000
0001
1000
0010
0000
1000
0001
,
0200
0000
0301
0000
0010
0100
1000
0000
,
0100
0010
0001
0000
0010
0100
1000
0000
,
0010
0100
0001
0000
0100
1000
0001
0000
,
1000
0100
0001
0000
1000
0010
0100
0000
,
0001
0100
0010
0000
1000
0100
0001
0220
,
0000
0000
0330
0000
1000
0000
0001
2000
,
0000
3000
0200
0000
0301
0000
0100
0000
,
0001
0100
0010
0000
1000
0100
0001
0000
,
0100
0000
0010
0100
0001
0000
1000
0010
,
0100
0000
0001
0000
0100
1000
0010
0000
,
1000
0010
0100
0000
0001
0000
0010
1000
,
0100
0000
0001
0000
1000
0010
0100
0000
,
0001
1000
0010
0000
1000
0000
0100
0000
,
0001
0000
0010
0000
0100
1000
0001
0000
,
0100
0000
1000
0100
0001
0010
0100
0000
,
0001
1000
0010
0000
1000
0000
0001
0000
,
0100
0001
0010
1000
,
0001
0000
0200
0000
0001
0300
0010
0000
,
0100
0001
1000
0100
,
0001
0100
0010
0000
0001
0000
2200
0000
,
3300
0010
1000
0010
,
0100
1000
0022
0033
,
0010
0100
0001
0000
0100
0000
1000
0000
,
0001
0100
0010
0000
0100
0000
0001
0000
,
1000
0000
0100
1000
0010
0000
0001
0000
,
1000
0001
0100
0001
,
0010
0001
0100
0010
,
1100
0000
0011
0100
0000
0010
1100
0001
,
0000
1000
0110
0000
0001
0000
1000
0000
,
0100
0000
0001
0000
0010
0000
0001
0100
,
1000
0000
0010
0000
0100
0000
0001
0100
,
0010
0000
0100
0000
1000
0000
0010
0100
,
0001
0000
0100
0000
0010
0000
1000
0010
,
0100
0001
0010
0100
,
1000
0100
0001
0000
0010
0000
0100
0000
,
1000
0010
0100
0000
0001
0000
0010
1000
,
0100
0000
0001
0000
1000
0000
0010
0100
,
0001
0000
0100
0000
0010
0100
1000
0000
,
0101
0000
0000
0000
0000
0000
0100
0010
,
1001
0000
0110
0001
1000
0001
0110
0000
,
1000
0010
0001
0000
1100
0000
0011
0000
,
0110
0000
1100
0010
0001
0010
0100
1000
,
0011
0110
2002
0000
,
0000
0000
0000
0000
,
0000
0000
3003
0100
0001
1000
0010
0100
,
2002
0000
3003
0100
0010
0000
1001
0010
,
0100
2002
3003
0000
;
